หน้า: 1 ... 22 23 [24] 25 26 ... 98

รวมผลคนใช้ CEN.GRAND 5i-360/380 HD player HI-END

  • kunin
  • Flat TV member
  • *
  • ออฟไลน์ ออฟไลน์
  • กระทู้: 78
  • ดูรายละเอียด อีเมล์
Re: รวมผลคนใช้ CEN.GRAND 5i-360 HDplayer hiend
« ตอบ #414 เมื่อ: ตุลาคม 02, 2013, 07:14:11 pm »

เมื่อวานลองอัพ FW 5i-360 V. 1.9.8.P จากเดิม 1.9.3.P โหลด FW จากเว็บจีน คับ
อัพแล้ว Factory reset 1 ครั้ง ส่วนตัวเห็นว่าดีกว่าเดิม คือเวลาเปลี่ยนเสียงและซับ มันแสดงผลได้เร็วกว่าเดิม เปิดไฟล์ภาพเร็วกว่าเดิม
เปิด MKV ISO ได้ปรกติไม่รอนาน

ปัญหาตอนคือ แสดงผลภาษาไทยได้แต่ไม่เป็นคำ

รอท่านอื่นเสริมอีกทีครับ


แสดงผลตัวหนังแบบติดกันไม่มีช่องว่างหรือปล่าวครับ
บันทึกการเข้า
  • verachai_w
  • Edge LED TV member
  • ***
  • ออฟไลน์ ออฟไลน์
  • กระทู้: 259
  • ดูรายละเอียด อีเมล์
Re: รวมผลคนใช้ CEN.GRAND 5i-360 HDplayer hiend
« ตอบ #415 เมื่อ: ตุลาคม 02, 2013, 09:49:55 pm »


ขออนุญาตเพิ่มเติมเกี่ยวกับซับไตเติ้ลใน MKV ในฐานะที่เป็นคนชอบดูหนัง HD จากไฟล์แบบดังกล่าวเป็นประจำ เจอปัญหาซับหายตั้งแต่ mkvmerge GUI v3.4 ขึ้นไปและก็ได้แก้ปัญหาตามกระทู้ข้างต้น รุ่นล่าสุดที่ใช้อยู่คือ v6.4.1 (Omega Point) ใช้ HD Media Player อยู่ 3 เครื่องคือ Playon!HD (Realtek 1073DD+), Kakudos HD104R (Realtek 1283DD+) และ Egreat S900 (Sigma 8643) แต่ส่วนใหญ่จะใช้เครื่องที่ใช้ชิพ Realtek ดูเพราะแทบไม่มีปัญหากับ MKV พอแก้ไขโดยรีมักซ์เขียนไฟล์ใหม่ อาการซับหายหมดไป มีซับขึ้นตามปกติ  mkvmerge GUI เวอร์ชั่นใหม่ก็ต้องเลือกซับที่ต้องการ เลือกแถบ Extra Options ข้างล่าง cue: default, compression: ถ้าปล่อยว่างมันจะเขียนแบบ zlib ให้กดเลือก none กับซับกราฟิกทุกตัว (vobsub/PGS) ซับแบบ text ไม่ว่า SRT, SSA, ASS ปล่อย compression: ว่างไว้หรือไม่ก็ไม่มีผล ข้อสังเกตคือ ไฟล์ที่เขียนซับ compression: zlib มา เล่นกับโปรแกรมเล่นมีเดียในคอมฯ มีซับขึ้นปกติ แต่เล่นกับ HD Media Player ซับไม่ขึ้น อีกอย่างหนึ่งคือไฟล์หนังที่โมซับใส่สีเหลือง ดูในคอมฯ สีเหลืองตามปกติ เล่นใน HD Media Player กลายเป็นสีฟ้า กลับกันใส่สีซับเป็นฟ้า ดูในคอมฯ ขึ้นเป็นสีฟ้า ใน HD Media Player กลับเป็นสีเหลือง (แต่ลองกับ Xtreamer Elvira ของน้องที่ใช้ชิพ Realtek 1055 แล้วสีออกถูกต้อง) ยังไม่เคยลองกับชิพยี่ห้อ/รุ่นอื่น และยังไม่มีเครื่องที่เล่นซับ PGS ได้ก็เลยยังไม่รู้ว่าอาการเดียวกันหรือไม่ แต่ถ้าฝังซับไว้ในภาพเลย ก็ไม่มีปัญหาเรื่องการแสดงผล ดูหนังแบบสบายๆ ไม่ต้องห่วงกดเลือกซับ เอาไปเล่นกับ USB ของทีวีก็หมดห่วง มีซับแน่ๆ เพราะมันฝังอยู่ในภาพ ตอนนี้เวลาได้หนัง MKV มาใหม่ก็เลยต้องใช้โปรแกรม Mediainfo ตรวจดูรายละเอียดก่อน ถ้าซับ vobsub/PGS เขียนแบบ zlib มาก็ต้องรีมักซ์แก้ใหม่ อีกอย่างหนึ่ง ซับที่เป็น text มานิยมจะเอามาแปลงร่างเป็น vobsub/PGS เพราะเราเลือกรูปแบบอักษรสวยๆ อ่านง่ายได้เองไม่ต้องจำกัดอยู่กับแบบอักษรและการเอ็นโค้ดของ HD Media Player แล้วขยายขนาดให้ใหญ่ขึ้น (ไม่ชอบซับกราฟิกตัวเล็ก อ่านลำบาก เจอกับ BDrip ค่าย Paramount เป็นประจำ) ก่อนแปลงร่างก็ตรวจแก้ตัวสะกดให้ถูกต้องก่อน ใส่เส้นขอบ-เงาและสีที่ต้องการให้อ่านสบายตาและไม่กลืนกับภาพที่บางช่วงอาจจะมืดหรือสว่างจ้า จัดแนวคำบรรยายไว้ใต้ภาพแบบ outbound เขียนซับที่ความละเอียด 1080p เพื่อความคมชัดของซับ ตัดความละเอียดซับแบบ 480p/720p ออกไป เนื่องจากแน่ใจว่า HD Media Player เล่นซับ 1080p ได้หมดแล้ว

ชอบคุณสำหรับข้อมูล เพิ่มเติมครับ
บันทึกการเข้า
  • nin
  • New member
  • *
  • ออฟไลน์ ออฟไลน์
  • กระทู้: 4
  • ดูรายละเอียด
Re: รวมผลคนใช้ CEN.GRAND 5i-360 HDplayer hiend
« ตอบ #416 เมื่อ: ตุลาคม 03, 2013, 10:41:14 am »

เมื่อวานลองอัพ FW 5i-360 V. 1.9.8.P จากเดิม 1.9.3.P โหลด FW จากเว็บจีน คับ
อัพแล้ว Factory reset 1 ครั้ง ส่วนตัวเห็นว่าดีกว่าเดิม คือเวลาเปลี่ยนเสียงและซับ มันแสดงผลได้เร็วกว่าเดิม เปิดไฟล์ภาพเร็วกว่าเดิม
เปิด MKV ISO ได้ปรกติไม่รอนาน

ปัญหาคือตอน แสดงผลภาษาไทยได้แต่ไม่เป็นคำ

รอท่านอื่นเสริมอีกทีครับ


แสดงผลตัวหนังแบบติดกันไม่มีช่องว่างหรือปล่าวครับ

ใช่ครับ
บันทึกการเข้า
  • bamboomu
  • Edge LED TV member
  • ***
  • ออฟไลน์ ออฟไลน์
  • กระทู้: 269
  • ดูรายละเอียด
Re: รวมผลคนใช้ CEN.GRAND 5i-360 HDplayer hiend
« ตอบ #417 เมื่อ: ตุลาคม 03, 2013, 03:51:35 pm »

ปัญหาเมื่อไหร่จะจบรอไม่ไหวเเล้ว  โขกกำแพง โขกกำแพง โขกกำแพงจะไป A 400 เเล้ว เสาร์นี้เพื่อนจะมารับ A210 ไปดูเเลต่อแล้ว เศร้า เศร้า เศร้า
บันทึกการเข้า
  • kritkris
  • Full LED TV member
  • ****
  • ออฟไลน์ ออฟไลน์
  • กระทู้: 1,239
  • ดูรายละเอียด อีเมล์
Re: รวมผลคนใช้ CEN.GRAND 5i-360 HDplayer hiend
« ตอบ #418 เมื่อ: ตุลาคม 03, 2013, 03:58:24 pm »

ปัญหาเมื่อไหร่จะจบรอไม่ไหวเเล้ว  โขกกำแพง โขกกำแพง โขกกำแพงจะไป A 400 เเล้ว เสาร์นี้เพื่อนจะมารับ A210 ไปดูเเลต่อแล้ว เศร้า เศร้า เศร้า
A400 เทียบกับ 5i 360 ภาพอันไหนดีกว่าครับ
บันทึกการเข้า
  • tsainont
  • Edge LED TV member
  • ***
  • ออฟไลน์ ออฟไลน์
  • กระทู้: 262
  • ดูรายละเอียด
Re: รวมผลคนใช้ CEN.GRAND 5i-360 HDplayer hiend
« ตอบ #419 เมื่อ: ตุลาคม 03, 2013, 08:28:39 pm »

อย่างนั้น ก็ต้องใช้ mkvmerge version 5.5.0 เพราะตัวใหม่ ๆ ไม่มีให้ติ๊กตรงนี้แล้ว

แต่เพิ่งเจอมาว่า ตั้งแต่ Version 6 เป็นต้นมาจะไม่มีการใช้ header removal compression แล้วครับ

 In v6.0.0 mkvmerge has been switched to not using header removal compression at all.

https://trac.bunkus.org/wiki/FAQ%3AImprovingPlaybackCompatibilityWithPlayers

ขออนุญาตเพิ่มเติมเกี่ยวกับซับไตเติ้ลใน MKV ในฐานะที่เป็นคนชอบดูหนัง HD จากไฟล์แบบดังกล่าวเป็นประจำ เจอปัญหาซับหายตั้งแต่ mkvmerge GUI v3.4 ขึ้นไปและก็ได้แก้ปัญหาตามกระทู้ข้างต้น รุ่นล่าสุดที่ใช้อยู่คือ v6.4.1 (Omega Point) ใช้ HD Media Player อยู่ 3 เครื่องคือ Playon!HD (Realtek 1073DD+), Kakudos HD104R (Realtek 1283DD+) และ Egreat S900 (Sigma 8643) แต่ส่วนใหญ่จะใช้เครื่องที่ใช้ชิพ Realtek ดูเพราะแทบไม่มีปัญหากับ MKV พอแก้ไขโดยรีมักซ์เขียนไฟล์ใหม่ อาการซับหายหมดไป มีซับขึ้นตามปกติ  mkvmerge GUI เวอร์ชั่นใหม่ก็ต้องเลือกซับที่ต้องการ เลือกแถบ Extra Options ข้างล่าง cue: default, compression: ถ้าปล่อยว่างมันจะเขียนแบบ zlib ให้กดเลือก none กับซับกราฟิกทุกตัว (vobsub/PGS) ซับแบบ text ไม่ว่า SRT, SSA, ASS ปล่อย compression: ว่างไว้หรือไม่ก็ไม่มีผล ข้อสังเกตคือ ไฟล์ที่เขียนซับ compression: zlib มา เล่นกับโปรแกรมเล่นมีเดียในคอมฯ มีซับขึ้นปกติ แต่เล่นกับ HD Media Player ซับไม่ขึ้น อีกอย่างหนึ่งคือไฟล์หนังที่โมซับใส่สีเหลือง ดูในคอมฯ สีเหลืองตามปกติ เล่นใน HD Media Player กลายเป็นสีฟ้า กลับกันใส่สีซับเป็นฟ้า ดูในคอมฯ ขึ้นเป็นสีฟ้า ใน HD Media Player กลับเป็นสีเหลือง (แต่ลองกับ Xtreamer Elvira ของน้องที่ใช้ชิพ Realtek 1055 แล้วสีออกถูกต้อง) ยังไม่เคยลองกับชิพยี่ห้อ/รุ่นอื่น และยังไม่มีเครื่องที่เล่นซับ PGS ได้ก็เลยยังไม่รู้ว่าอาการเดียวกันหรือไม่ แต่ถ้าฝังซับไว้ในภาพเลย ก็ไม่มีปัญหาเรื่องการแสดงผล ดูหนังแบบสบายๆ ไม่ต้องห่วงกดเลือกซับ เอาไปเล่นกับ USB ของทีวีก็หมดห่วง มีซับแน่ๆ เพราะมันฝังอยู่ในภาพ ตอนนี้เวลาได้หนัง MKV มาใหม่ก็เลยต้องใช้โปรแกรม Mediainfo ตรวจดูรายละเอียดก่อน ถ้าซับ vobsub/PGS เขียนแบบ zlib มาก็ต้องรีมักซ์แก้ใหม่ อีกอย่างหนึ่ง ซับที่เป็น text มานิยมจะเอามาแปลงร่างเป็น vobsub/PGS เพราะเราเลือกรูปแบบอักษรสวยๆ อ่านง่ายได้เองไม่ต้องจำกัดอยู่กับแบบอักษรและการเอ็นโค้ดของ HD Media Player แล้วขยายขนาดให้ใหญ่ขึ้น (ไม่ชอบซับกราฟิกตัวเล็ก อ่านลำบาก เจอกับ BDrip ค่าย Paramount เป็นประจำ) ก่อนแปลงร่างก็ตรวจแก้ตัวสะกดให้ถูกต้องก่อน ใส่เส้นขอบ-เงาและสีที่ต้องการให้อ่านสบายตาและไม่กลืนกับภาพที่บางช่วงอาจจะมืดหรือสว่างจ้า จัดแนวคำบรรยายไว้ใต้ภาพแบบ outbound เขียนซับที่ความละเอียด 1080p เพื่อความคมชัดของซับ ตัดความละเอียดซับแบบ 480p/720p ออกไป เนื่องจากแน่ใจว่า HD Media Player เล่นซับ 1080p ได้หมดแล้ว

ข้อมูลน่าสนใจมากครับ แล้วจะเช็คอย่างไรว่าเป็น zlib หรือป่าว เพราะผมลองใช้ mediainfo เช็ค มันก็ไม่ได้ระบุว่าเป็น zlib หรือ None

ท่านใดที่ยังมีปัญหาเล่น mkv แล้วซับหาย ลอง REMUX ใหม่ แล้วแก้ไขในเมนู extra option -> compression ให้เป็น none สำหรับซับกราฟฟิคทุกตัว แล้วลองเล่นดูว่าหายหรือป่าวนะครับ

ต้องขอบคุณคุณ scifan สำหรับข้อมูลครับ
« แก้ไขครั้งสุดท้าย: ตุลาคม 03, 2013, 08:40:00 pm โดย tsainont »
บันทึกการเข้า
  • scifan
  • LCD TV member
  • **
  • ออฟไลน์ ออฟไลน์
  • กระทู้: 83
  • ดูรายละเอียด อีเมล์
Re: รวมผลคนใช้ CEN.GRAND 5i-360 HDplayer hiend
« ตอบ #420 เมื่อ: ตุลาคม 03, 2013, 11:24:51 pm »

อย่างนั้น ก็ต้องใช้ mkvmerge version 5.5.0 เพราะตัวใหม่ ๆ ไม่มีให้ติ๊กตรงนี้แล้ว

แต่เพิ่งเจอมาว่า ตั้งแต่ Version 6 เป็นต้นมาจะไม่มีการใช้ header removal compression แล้วครับ

 In v6.0.0 mkvmerge has been switched to not using header removal compression at all.

https://trac.bunkus.org/wiki/FAQ%3AImprovingPlaybackCompatibilityWithPlayers

ขออนุญาตเพิ่มเติมเกี่ยวกับซับไตเติ้ลใน MKV ในฐานะที่เป็นคนชอบดูหนัง HD จากไฟล์แบบดังกล่าวเป็นประจำ เจอปัญหาซับหายตั้งแต่ mkvmerge GUI v3.4 ขึ้นไปและก็ได้แก้ปัญหาตามกระทู้ข้างต้น รุ่นล่าสุดที่ใช้อยู่คือ v6.4.1 (Omega Point) ใช้ HD Media Player อยู่ 3 เครื่องคือ Playon!HD (Realtek 1073DD+), Kakudos HD104R (Realtek 1283DD+) และ Egreat S900 (Sigma 8643) แต่ส่วนใหญ่จะใช้เครื่องที่ใช้ชิพ Realtek ดูเพราะแทบไม่มีปัญหากับ MKV พอแก้ไขโดยรีมักซ์เขียนไฟล์ใหม่ อาการซับหายหมดไป มีซับขึ้นตามปกติ  mkvmerge GUI เวอร์ชั่นใหม่ก็ต้องเลือกซับที่ต้องการ เลือกแถบ Extra Options ข้างล่าง cue: default, compression: ถ้าปล่อยว่างมันจะเขียนแบบ zlib ให้กดเลือก none กับซับกราฟิกทุกตัว (vobsub/PGS) ซับแบบ text ไม่ว่า SRT, SSA, ASS ปล่อย compression: ว่างไว้หรือไม่ก็ไม่มีผล ข้อสังเกตคือ ไฟล์ที่เขียนซับ compression: zlib มา เล่นกับโปรแกรมเล่นมีเดียในคอมฯ มีซับขึ้นปกติ แต่เล่นกับ HD Media Player ซับไม่ขึ้น อีกอย่างหนึ่งคือไฟล์หนังที่โมซับใส่สีเหลือง ดูในคอมฯ สีเหลืองตามปกติ เล่นใน HD Media Player กลายเป็นสีฟ้า กลับกันใส่สีซับเป็นฟ้า ดูในคอมฯ ขึ้นเป็นสีฟ้า ใน HD Media Player กลับเป็นสีเหลือง (แต่ลองกับ Xtreamer Elvira ของน้องที่ใช้ชิพ Realtek 1055 แล้วสีออกถูกต้อง) ยังไม่เคยลองกับชิพยี่ห้อ/รุ่นอื่น และยังไม่มีเครื่องที่เล่นซับ PGS ได้ก็เลยยังไม่รู้ว่าอาการเดียวกันหรือไม่ แต่ถ้าฝังซับไว้ในภาพเลย ก็ไม่มีปัญหาเรื่องการแสดงผล ดูหนังแบบสบายๆ ไม่ต้องห่วงกดเลือกซับ เอาไปเล่นกับ USB ของทีวีก็หมดห่วง มีซับแน่ๆ เพราะมันฝังอยู่ในภาพ ตอนนี้เวลาได้หนัง MKV มาใหม่ก็เลยต้องใช้โปรแกรม Mediainfo ตรวจดูรายละเอียดก่อน ถ้าซับ vobsub/PGS เขียนแบบ zlib มาก็ต้องรีมักซ์แก้ใหม่ อีกอย่างหนึ่ง ซับที่เป็น text มานิยมจะเอามาแปลงร่างเป็น vobsub/PGS เพราะเราเลือกรูปแบบอักษรสวยๆ อ่านง่ายได้เองไม่ต้องจำกัดอยู่กับแบบอักษรและการเอ็นโค้ดของ HD Media Player แล้วขยายขนาดให้ใหญ่ขึ้น (ไม่ชอบซับกราฟิกตัวเล็ก อ่านลำบาก เจอกับ BDrip ค่าย Paramount เป็นประจำ) ก่อนแปลงร่างก็ตรวจแก้ตัวสะกดให้ถูกต้องก่อน ใส่เส้นขอบ-เงาและสีที่ต้องการให้อ่านสบายตาและไม่กลืนกับภาพที่บางช่วงอาจจะมืดหรือสว่างจ้า จัดแนวคำบรรยายไว้ใต้ภาพแบบ outbound เขียนซับที่ความละเอียด 1080p เพื่อความคมชัดของซับ ตัดความละเอียดซับแบบ 480p/720p ออกไป เนื่องจากแน่ใจว่า HD Media Player เล่นซับ 1080p ได้หมดแล้ว

ข้อมูลน่าสนใจมากครับ แล้วจะเช็คอย่างไรว่าเป็น zlib หรือป่าว เพราะผมลองใช้ mediainfo เช็ค มันก็ไม่ได้ระบุว่าเป็น zlib หรือ None

ท่านใดที่ยังมีปัญหาเล่น mkv แล้วซับหาย ลอง REMUX ใหม่ แล้วแก้ไขในเมนู extra option -> compression ให้เป็น none สำหรับซับกราฟฟิคทุกตัว แล้วลองเล่นดูว่าหายหรือป่าวนะครับ

ต้องขอบคุณคุณ scifan สำหรับข้อมูลครับ

ในโปรแกรม MediaInfo ตั้งมุมมอง view เป็น text จะอ่านง่าย ตัวอย่างจากการอ่านข้อมูล Bleach The Movie 1 Memory Of Nobody [1900-1080][ AC3 ].mkv :-
Video
ID                                       : 1
Format                                   : AVC
Format/Info                              : Advanced Video Codec
Format profile                           : Main@L5.1
Format settings, CABAC                   : Yes
Format settings, ReFrames                : 1 frame
Muxing mode                              : Header stripping
Codec ID                                 : V_MPEG4/ISO/AVC
Duration                                 : 1h 32mn
Bit rate                                 : 1 741 Kbps
Width                                    : 1 920 pixels
Height                                   : 1 080 pixels
Display aspect ratio                     : 16:9
Frame rate mode                          : Constant
Frame rate                               : 25.000 fps
Color space                              : YUV
Chroma subsampling                       : 4:2:0
Bit depth                                : 8 bits
Scan type                                : Progressive
Bits/(Pixel*Frame)                       : 0.034
Stream size                              : 1.13 GiB (66%)
Default                                  : Yes
Forced                                   : No

Audio #1
ID                                       : 2
Format                                   : AC-3
Format/Info                              : Audio Coding 3
Mode extension                           : CM (complete main)
Format settings, Endianness              : Big
Muxing mode                              : Header stripping
Codec ID                                 : A_AC3
Duration                                 : 1h 32mn
Bit rate mode                            : Constant
Bit rate                                 : 384 Kbps
Channel(s)                               : 6 channels
Channel positions                        : Front: L C R, Side: L R, LFE
Sampling rate                            : 48.0 KHz
Bit depth                                : 16 bits
Compression mode                         : Lossy
Stream size                              : 255 MiB (15%)
Language                                 : Japanese
Default                                  : No
Forced                                   : No

Audio #2
ID                                       : 3
Format                                   : AC-3
Format/Info                              : Audio Coding 3
Mode extension                           : CM (complete main)
Format settings, Endianness              : Big
Muxing mode                              : Header stripping
Codec ID                                 : A_AC3
Duration                                 : 1h 32mn
Bit rate mode                            : Constant
Bit rate                                 : 448 Kbps
Channel(s)                               : 6 channels
Channel positions                        : Front: L C R, Side: L R, LFE
Sampling rate                            : 48.0 KHz
Bit depth                                : 16 bits
Compression mode                         : Lossy
Stream size                              : 298 MiB (17%)
Language                                 : Thai
Default                                  : Yes
Forced                                   : No

Text
ID                                       : 4
Format                                   : VobSub
Muxing mode                              : zlib
Codec ID                                 : S_VOBSUB
Codec ID/Info                            : The same subtitle format used on DVDs
Language                                 : Thai
Default                                  : No
Forced                                   : No

จะเห็นได้ว่า ที่ Text ID4 ซึ่งเป็นซับแบบ vobsub ตรง Muxing mode: จะระบุว่า zlib ถ้าไม่มีตัวนี้แสดงว่าการ Muxing ไม่ได้มีการ compression มา เครื่อง HD Media Player น่าจะอ่านซับขึ้นมาแสดงได้โดยไม่มีปัญหา และ Muxing mode นี้จะเป็นตัวเลือกใช้งานเฉพาะซับแบบกราฟิกเท่านั้น ซับแบบ text ไม่มีผลใดๆ ข้อมูลรายละเอียดไฟล์ที่ MediaInfo แสดง ถ้าเกี่ยวกับซับแบบ text จึงไม่มีข้อนี้ปรากฎอยู่ และสำหรับไฟล์ mkv ที่แก้ compression ของซับแบบกราฟิกเป็น none แล้ว ถ้าเอามารีมักซ์ใหม่อีก ก็ต้องเลือกซับแบบกราฟิกทุกตัวเป็น compression:none ใหม่อีกทีหนึ่ง
« แก้ไขครั้งสุดท้าย: ตุลาคม 03, 2013, 11:49:36 pm โดย scifan »
บันทึกการเข้า
  • tsainont
  • Edge LED TV member
  • ***
  • ออฟไลน์ ออฟไลน์
  • กระทู้: 262
  • ดูรายละเอียด
Re: รวมผลคนใช้ CEN.GRAND 5i-360 HDplayer hiend
« ตอบ #421 เมื่อ: ตุลาคม 04, 2013, 02:49:16 pm »

อย่างนั้น ก็ต้องใช้ mkvmerge version 5.5.0 เพราะตัวใหม่ ๆ ไม่มีให้ติ๊กตรงนี้แล้ว

แต่เพิ่งเจอมาว่า ตั้งแต่ Version 6 เป็นต้นมาจะไม่มีการใช้ header removal compression แล้วครับ

 In v6.0.0 mkvmerge has been switched to not using header removal compression at all.

https://trac.bunkus.org/wiki/FAQ%3AImprovingPlaybackCompatibilityWithPlayers

ขออนุญาตเพิ่มเติมเกี่ยวกับซับไตเติ้ลใน MKV ในฐานะที่เป็นคนชอบดูหนัง HD จากไฟล์แบบดังกล่าวเป็นประจำ เจอปัญหาซับหายตั้งแต่ mkvmerge GUI v3.4 ขึ้นไปและก็ได้แก้ปัญหาตามกระทู้ข้างต้น รุ่นล่าสุดที่ใช้อยู่คือ v6.4.1 (Omega Point) ใช้ HD Media Player อยู่ 3 เครื่องคือ Playon!HD (Realtek 1073DD+), Kakudos HD104R (Realtek 1283DD+) และ Egreat S900 (Sigma 8643) แต่ส่วนใหญ่จะใช้เครื่องที่ใช้ชิพ Realtek ดูเพราะแทบไม่มีปัญหากับ MKV พอแก้ไขโดยรีมักซ์เขียนไฟล์ใหม่ อาการซับหายหมดไป มีซับขึ้นตามปกติ  mkvmerge GUI เวอร์ชั่นใหม่ก็ต้องเลือกซับที่ต้องการ เลือกแถบ Extra Options ข้างล่าง cue: default, compression: ถ้าปล่อยว่างมันจะเขียนแบบ zlib ให้กดเลือก none กับซับกราฟิกทุกตัว (vobsub/PGS) ซับแบบ text ไม่ว่า SRT, SSA, ASS ปล่อย compression: ว่างไว้หรือไม่ก็ไม่มีผล ข้อสังเกตคือ ไฟล์ที่เขียนซับ compression: zlib มา เล่นกับโปรแกรมเล่นมีเดียในคอมฯ มีซับขึ้นปกติ แต่เล่นกับ HD Media Player ซับไม่ขึ้น อีกอย่างหนึ่งคือไฟล์หนังที่โมซับใส่สีเหลือง ดูในคอมฯ สีเหลืองตามปกติ เล่นใน HD Media Player กลายเป็นสีฟ้า กลับกันใส่สีซับเป็นฟ้า ดูในคอมฯ ขึ้นเป็นสีฟ้า ใน HD Media Player กลับเป็นสีเหลือง (แต่ลองกับ Xtreamer Elvira ของน้องที่ใช้ชิพ Realtek 1055 แล้วสีออกถูกต้อง) ยังไม่เคยลองกับชิพยี่ห้อ/รุ่นอื่น และยังไม่มีเครื่องที่เล่นซับ PGS ได้ก็เลยยังไม่รู้ว่าอาการเดียวกันหรือไม่ แต่ถ้าฝังซับไว้ในภาพเลย ก็ไม่มีปัญหาเรื่องการแสดงผล ดูหนังแบบสบายๆ ไม่ต้องห่วงกดเลือกซับ เอาไปเล่นกับ USB ของทีวีก็หมดห่วง มีซับแน่ๆ เพราะมันฝังอยู่ในภาพ ตอนนี้เวลาได้หนัง MKV มาใหม่ก็เลยต้องใช้โปรแกรม Mediainfo ตรวจดูรายละเอียดก่อน ถ้าซับ vobsub/PGS เขียนแบบ zlib มาก็ต้องรีมักซ์แก้ใหม่ อีกอย่างหนึ่ง ซับที่เป็น text มานิยมจะเอามาแปลงร่างเป็น vobsub/PGS เพราะเราเลือกรูปแบบอักษรสวยๆ อ่านง่ายได้เองไม่ต้องจำกัดอยู่กับแบบอักษรและการเอ็นโค้ดของ HD Media Player แล้วขยายขนาดให้ใหญ่ขึ้น (ไม่ชอบซับกราฟิกตัวเล็ก อ่านลำบาก เจอกับ BDrip ค่าย Paramount เป็นประจำ) ก่อนแปลงร่างก็ตรวจแก้ตัวสะกดให้ถูกต้องก่อน ใส่เส้นขอบ-เงาและสีที่ต้องการให้อ่านสบายตาและไม่กลืนกับภาพที่บางช่วงอาจจะมืดหรือสว่างจ้า จัดแนวคำบรรยายไว้ใต้ภาพแบบ outbound เขียนซับที่ความละเอียด 1080p เพื่อความคมชัดของซับ ตัดความละเอียดซับแบบ 480p/720p ออกไป เนื่องจากแน่ใจว่า HD Media Player เล่นซับ 1080p ได้หมดแล้ว

ข้อมูลน่าสนใจมากครับ แล้วจะเช็คอย่างไรว่าเป็น zlib หรือป่าว เพราะผมลองใช้ mediainfo เช็ค มันก็ไม่ได้ระบุว่าเป็น zlib หรือ None

ท่านใดที่ยังมีปัญหาเล่น mkv แล้วซับหาย ลอง REMUX ใหม่ แล้วแก้ไขในเมนู extra option -> compression ให้เป็น none สำหรับซับกราฟฟิคทุกตัว แล้วลองเล่นดูว่าหายหรือป่าวนะครับ

ต้องขอบคุณคุณ scifan สำหรับข้อมูลครับ

ในโปรแกรม MediaInfo ตั้งมุมมอง view เป็น text จะอ่านง่าย ตัวอย่างจากการอ่านข้อมูล Bleach The Movie 1 Memory Of Nobody [1900-1080][ AC3 ].mkv :-
Video
ID                                       : 1
Format                                   : AVC
Format/Info                              : Advanced Video Codec
Format profile                           : Main@L5.1
Format settings, CABAC                   : Yes
Format settings, ReFrames                : 1 frame
Muxing mode                              : Header stripping
Codec ID                                 : V_MPEG4/ISO/AVC
Duration                                 : 1h 32mn
Bit rate                                 : 1 741 Kbps
Width                                    : 1 920 pixels
Height                                   : 1 080 pixels
Display aspect ratio                     : 16:9
Frame rate mode                          : Constant
Frame rate                               : 25.000 fps
Color space                              : YUV
Chroma subsampling                       : 4:2:0
Bit depth                                : 8 bits
Scan type                                : Progressive
Bits/(Pixel*Frame)                       : 0.034
Stream size                              : 1.13 GiB (66%)
Default                                  : Yes
Forced                                   : No

Audio #1
ID                                       : 2
Format                                   : AC-3
Format/Info                              : Audio Coding 3
Mode extension                           : CM (complete main)
Format settings, Endianness              : Big
Muxing mode                              : Header stripping
Codec ID                                 : A_AC3
Duration                                 : 1h 32mn
Bit rate mode                            : Constant
Bit rate                                 : 384 Kbps
Channel(s)                               : 6 channels
Channel positions                        : Front: L C R, Side: L R, LFE
Sampling rate                            : 48.0 KHz
Bit depth                                : 16 bits
Compression mode                         : Lossy
Stream size                              : 255 MiB (15%)
Language                                 : Japanese
Default                                  : No
Forced                                   : No

Audio #2
ID                                       : 3
Format                                   : AC-3
Format/Info                              : Audio Coding 3
Mode extension                           : CM (complete main)
Format settings, Endianness              : Big
Muxing mode                              : Header stripping
Codec ID                                 : A_AC3
Duration                                 : 1h 32mn
Bit rate mode                            : Constant
Bit rate                                 : 448 Kbps
Channel(s)                               : 6 channels
Channel positions                        : Front: L C R, Side: L R, LFE
Sampling rate                            : 48.0 KHz
Bit depth                                : 16 bits
Compression mode                         : Lossy
Stream size                              : 298 MiB (17%)
Language                                 : Thai
Default                                  : Yes
Forced                                   : No

Text
ID                                       : 4
Format                                   : VobSub
Muxing mode                              : zlib
Codec ID                                 : S_VOBSUB
Codec ID/Info                            : The same subtitle format used on DVDs
Language                                 : Thai
Default                                  : No
Forced                                   : No

จะเห็นได้ว่า ที่ Text ID4 ซึ่งเป็นซับแบบ vobsub ตรง Muxing mode: จะระบุว่า zlib ถ้าไม่มีตัวนี้แสดงว่าการ Muxing ไม่ได้มีการ compression มา เครื่อง HD Media Player น่าจะอ่านซับขึ้นมาแสดงได้โดยไม่มีปัญหา และ Muxing mode นี้จะเป็นตัวเลือกใช้งานเฉพาะซับแบบกราฟิกเท่านั้น ซับแบบ text ไม่มีผลใดๆ ข้อมูลรายละเอียดไฟล์ที่ MediaInfo แสดง ถ้าเกี่ยวกับซับแบบ text จึงไม่มีข้อนี้ปรากฎอยู่ และสำหรับไฟล์ mkv ที่แก้ compression ของซับแบบกราฟิกเป็น none แล้ว ถ้าเอามารีมักซ์ใหม่อีก ก็ต้องเลือกซับแบบกราฟิกทุกตัวเป็น compression:none ใหม่อีกทีหนึ่ง

ผมลองดูหลายเรื่อง แต่ทั้งหมดไม่มีบอก muxing mode ให้เดาเอาว่า ทั้งหมดก็ไม่น่าจะมี compression ใช่ไม๊ครับ
บันทึกการเข้า
  • verachai_w
  • Edge LED TV member
  • ***
  • ออฟไลน์ ออฟไลน์
  • กระทู้: 259
  • ดูรายละเอียด อีเมล์
Re: รวมผลคนใช้ CEN.GRAND 5i-360 HDplayer hiend
« ตอบ #422 เมื่อ: ตุลาคม 04, 2013, 02:55:33 pm »

ลอง mux ใหม่ แล้ว set ให้ compression เป็น none แล้ว ใช้ mkvinfo ดูอีกทีซิครับ
บันทึกการเข้า
  • scifan
  • LCD TV member
  • **
  • ออฟไลน์ ออฟไลน์
  • กระทู้: 83
  • ดูรายละเอียด อีเมล์
Re: รวมผลคนใช้ CEN.GRAND 5i-360 HDplayer hiend
« ตอบ #423 เมื่อ: ตุลาคม 05, 2013, 02:22:32 am »

อย่างนั้น ก็ต้องใช้ mkvmerge version 5.5.0 เพราะตัวใหม่ ๆ ไม่มีให้ติ๊กตรงนี้แล้ว

แต่เพิ่งเจอมาว่า ตั้งแต่ Version 6 เป็นต้นมาจะไม่มีการใช้ header removal compression แล้วครับ

 In v6.0.0 mkvmerge has been switched to not using header removal compression at all.

https://trac.bunkus.org/wiki/FAQ%3AImprovingPlaybackCompatibilityWithPlayers

ขออนุญาตเพิ่มเติมเกี่ยวกับซับไตเติ้ลใน MKV ในฐานะที่เป็นคนชอบดูหนัง HD จากไฟล์แบบดังกล่าวเป็นประจำ เจอปัญหาซับหายตั้งแต่ mkvmerge GUI v3.4 ขึ้นไปและก็ได้แก้ปัญหาตามกระทู้ข้างต้น รุ่นล่าสุดที่ใช้อยู่คือ v6.4.1 (Omega Point) ใช้ HD Media Player อยู่ 3 เครื่องคือ Playon!HD (Realtek 1073DD+), Kakudos HD104R (Realtek 1283DD+) และ Egreat S900 (Sigma 8643) แต่ส่วนใหญ่จะใช้เครื่องที่ใช้ชิพ Realtek ดูเพราะแทบไม่มีปัญหากับ MKV พอแก้ไขโดยรีมักซ์เขียนไฟล์ใหม่ อาการซับหายหมดไป มีซับขึ้นตามปกติ  mkvmerge GUI เวอร์ชั่นใหม่ก็ต้องเลือกซับที่ต้องการ เลือกแถบ Extra Options ข้างล่าง cue: default, compression: ถ้าปล่อยว่างมันจะเขียนแบบ zlib ให้กดเลือก none กับซับกราฟิกทุกตัว (vobsub/PGS) ซับแบบ text ไม่ว่า SRT, SSA, ASS ปล่อย compression: ว่างไว้หรือไม่ก็ไม่มีผล ข้อสังเกตคือ ไฟล์ที่เขียนซับ compression: zlib มา เล่นกับโปรแกรมเล่นมีเดียในคอมฯ มีซับขึ้นปกติ แต่เล่นกับ HD Media Player ซับไม่ขึ้น อีกอย่างหนึ่งคือไฟล์หนังที่โมซับใส่สีเหลือง ดูในคอมฯ สีเหลืองตามปกติ เล่นใน HD Media Player กลายเป็นสีฟ้า กลับกันใส่สีซับเป็นฟ้า ดูในคอมฯ ขึ้นเป็นสีฟ้า ใน HD Media Player กลับเป็นสีเหลือง (แต่ลองกับ Xtreamer Elvira ของน้องที่ใช้ชิพ Realtek 1055 แล้วสีออกถูกต้อง) ยังไม่เคยลองกับชิพยี่ห้อ/รุ่นอื่น และยังไม่มีเครื่องที่เล่นซับ PGS ได้ก็เลยยังไม่รู้ว่าอาการเดียวกันหรือไม่ แต่ถ้าฝังซับไว้ในภาพเลย ก็ไม่มีปัญหาเรื่องการแสดงผล ดูหนังแบบสบายๆ ไม่ต้องห่วงกดเลือกซับ เอาไปเล่นกับ USB ของทีวีก็หมดห่วง มีซับแน่ๆ เพราะมันฝังอยู่ในภาพ ตอนนี้เวลาได้หนัง MKV มาใหม่ก็เลยต้องใช้โปรแกรม Mediainfo ตรวจดูรายละเอียดก่อน ถ้าซับ vobsub/PGS เขียนแบบ zlib มาก็ต้องรีมักซ์แก้ใหม่ อีกอย่างหนึ่ง ซับที่เป็น text มานิยมจะเอามาแปลงร่างเป็น vobsub/PGS เพราะเราเลือกรูปแบบอักษรสวยๆ อ่านง่ายได้เองไม่ต้องจำกัดอยู่กับแบบอักษรและการเอ็นโค้ดของ HD Media Player แล้วขยายขนาดให้ใหญ่ขึ้น (ไม่ชอบซับกราฟิกตัวเล็ก อ่านลำบาก เจอกับ BDrip ค่าย Paramount เป็นประจำ) ก่อนแปลงร่างก็ตรวจแก้ตัวสะกดให้ถูกต้องก่อน ใส่เส้นขอบ-เงาและสีที่ต้องการให้อ่านสบายตาและไม่กลืนกับภาพที่บางช่วงอาจจะมืดหรือสว่างจ้า จัดแนวคำบรรยายไว้ใต้ภาพแบบ outbound เขียนซับที่ความละเอียด 1080p เพื่อความคมชัดของซับ ตัดความละเอียดซับแบบ 480p/720p ออกไป เนื่องจากแน่ใจว่า HD Media Player เล่นซับ 1080p ได้หมดแล้ว

ข้อมูลน่าสนใจมากครับ แล้วจะเช็คอย่างไรว่าเป็น zlib หรือป่าว เพราะผมลองใช้ mediainfo เช็ค มันก็ไม่ได้ระบุว่าเป็น zlib หรือ None

ท่านใดที่ยังมีปัญหาเล่น mkv แล้วซับหาย ลอง REMUX ใหม่ แล้วแก้ไขในเมนู extra option -> compression ให้เป็น none สำหรับซับกราฟฟิคทุกตัว แล้วลองเล่นดูว่าหายหรือป่าวนะครับ

ต้องขอบคุณคุณ scifan สำหรับข้อมูลครับ

ในโปรแกรม MediaInfo ตั้งมุมมอง view เป็น text จะอ่านง่าย ตัวอย่างจากการอ่านข้อมูล Bleach The Movie 1 Memory Of Nobody [1900-1080][ AC3 ].mkv :-
Video
ID                                       : 1
Format                                   : AVC
Format/Info                              : Advanced Video Codec
Format profile                           : Main@L5.1
Format settings, CABAC                   : Yes
Format settings, ReFrames                : 1 frame
Muxing mode                              : Header stripping
Codec ID                                 : V_MPEG4/ISO/AVC
Duration                                 : 1h 32mn
Bit rate                                 : 1 741 Kbps
Width                                    : 1 920 pixels
Height                                   : 1 080 pixels
Display aspect ratio                     : 16:9
Frame rate mode                          : Constant
Frame rate                               : 25.000 fps
Color space                              : YUV
Chroma subsampling                       : 4:2:0
Bit depth                                : 8 bits
Scan type                                : Progressive
Bits/(Pixel*Frame)                       : 0.034
Stream size                              : 1.13 GiB (66%)
Default                                  : Yes
Forced                                   : No

Audio #1
ID                                       : 2
Format                                   : AC-3
Format/Info                              : Audio Coding 3
Mode extension                           : CM (complete main)
Format settings, Endianness              : Big
Muxing mode                              : Header stripping
Codec ID                                 : A_AC3
Duration                                 : 1h 32mn
Bit rate mode                            : Constant
Bit rate                                 : 384 Kbps
Channel(s)                               : 6 channels
Channel positions                        : Front: L C R, Side: L R, LFE
Sampling rate                            : 48.0 KHz
Bit depth                                : 16 bits
Compression mode                         : Lossy
Stream size                              : 255 MiB (15%)
Language                                 : Japanese
Default                                  : No
Forced                                   : No

Audio #2
ID                                       : 3
Format                                   : AC-3
Format/Info                              : Audio Coding 3
Mode extension                           : CM (complete main)
Format settings, Endianness              : Big
Muxing mode                              : Header stripping
Codec ID                                 : A_AC3
Duration                                 : 1h 32mn
Bit rate mode                            : Constant
Bit rate                                 : 448 Kbps
Channel(s)                               : 6 channels
Channel positions                        : Front: L C R, Side: L R, LFE
Sampling rate                            : 48.0 KHz
Bit depth                                : 16 bits
Compression mode                         : Lossy
Stream size                              : 298 MiB (17%)
Language                                 : Thai
Default                                  : Yes
Forced                                   : No

Text
ID                                       : 4
Format                                   : VobSub
Muxing mode                              : zlib
Codec ID                                 : S_VOBSUB
Codec ID/Info                            : The same subtitle format used on DVDs
Language                                 : Thai
Default                                  : No
Forced                                   : No

จะเห็นได้ว่า ที่ Text ID4 ซึ่งเป็นซับแบบ vobsub ตรง Muxing mode: จะระบุว่า zlib ถ้าไม่มีตัวนี้แสดงว่าการ Muxing ไม่ได้มีการ compression มา เครื่อง HD Media Player น่าจะอ่านซับขึ้นมาแสดงได้โดยไม่มีปัญหา และ Muxing mode นี้จะเป็นตัวเลือกใช้งานเฉพาะซับแบบกราฟิกเท่านั้น ซับแบบ text ไม่มีผลใดๆ ข้อมูลรายละเอียดไฟล์ที่ MediaInfo แสดง ถ้าเกี่ยวกับซับแบบ text จึงไม่มีข้อนี้ปรากฎอยู่ และสำหรับไฟล์ mkv ที่แก้ compression ของซับแบบกราฟิกเป็น none แล้ว ถ้าเอามารีมักซ์ใหม่อีก ก็ต้องเลือกซับแบบกราฟิกทุกตัวเป็น compression:none ใหม่อีกทีหนึ่ง

ผมลองดูหลายเรื่อง แต่ทั้งหมดไม่มีบอก muxing mode ให้เดาเอาว่า ทั้งหมดก็ไม่น่าจะมี compression ใช่ไม๊ครับ

ถ้า mkv ไฟล์นั้น mediaInfo ไม่แสดงหัวข้อว่า Muxing mode ในส่วนของซับกราฟิก ก็แสดงว่าซับตัวนั้นไม่ได้ compress มา เท่าที่ลองดูแล้วก็แสดงซับได้หมด
บันทึกการเข้า
  • wat12
  • Full LED TV member
  • ****
  • ออฟไลน์ ออฟไลน์
  • กระทู้: 1,068
  • งบลับมีน้อย อยากสอยของดี หาทั่วปัฐพี มิมีพบเจอ จึงเผลอโมฯแหลก
  • ดูรายละเอียด อีเมล์
Re: รวมผลคนใช้ CEN.GRAND 5i-360 HDplayer hiend
« ตอบ #424 เมื่อ: ตุลาคม 05, 2013, 10:38:25 am »

ปัญหาเมื่อไหร่จะจบรอไม่ไหวเเล้ว  โขกกำแพง โขกกำแพง โขกกำแพงจะไป A 400 เเล้ว เสาร์นี้เพื่อนจะมารับ A210 ไปดูเเลต่อแล้ว เศร้า เศร้า เศร้า
A400 เทียบกับ 5i 360 ภาพอันไหนดีกว่าครับ

เท่าที่ลองเล่นมาระยะหนึ่ง
เน้นทั้งภาพ  และเสียง (เข้าขั้นบร้า เช่นกัน อิอิ คิคิ )
ส่วนตัวคิดว่าเรื่องการเล่นmkvคลี่คลายขึ้น  เรื่อยๆ แล้วหละ

เล่น kaiboer K830i มาปีกว่า..........เรื่องฟีทเจอร์หลายๆ  อย่างดูจะด้อยกว่า Cengrandด้วยซ้ำไป

แต่ถ้าเอามาเล่นFull rib เป็นหลักแบบข้าน้อย..5i-ADถือว่าเล่นได้เพลินมากๆ
ยิ่งได้เล่นกับ BDR Ecternal Drive(Modded) ยิ่งถูกใจมากๆจร้า.....และยังมีข่าวขากพี่ๆอีกหลายท่านในก๊วนหลายท่านปล่อยของที่ใช้อยู่( ยี่ห้อ O.....O )ไปแบบไม่เสียดายเลย  เมื่อได้เล่น5i-AD
« แก้ไขครั้งสุดท้าย: ตุลาคม 05, 2013, 10:41:36 am โดย wat12 »
บันทึกการเข้า
  • bamboomu
  • Edge LED TV member
  • ***
  • ออฟไลน์ ออฟไลน์
  • กระทู้: 269
  • ดูรายละเอียด
Re: รวมผลคนใช้ CEN.GRAND 5i-360 HDplayer hiend
« ตอบ #425 เมื่อ: ตุลาคม 05, 2013, 12:21:49 pm »

ปัญหาเมื่อไหร่จะจบรอไม่ไหวเเล้ว  โขกกำแพง โขกกำแพง โขกกำแพงจะไป A 400 เเล้ว เสาร์นี้เพื่อนจะมารับ A210 ไปดูเเลต่อแล้ว เศร้า เศร้า เศร้า
A400 เทียบกับ 5i 360 ภาพอันไหนดีกว่าครับ

เท่าที่ลองเล่นมาระยะหนึ่ง
เน้นทั้งภาพ  และเสียง (เข้าขั้นบร้า เช่นกัน อิอิ คิคิ )
ส่วนตัวคิดว่าเรื่องการเล่นmkvคลี่คลายขึ้น  เรื่อยๆ แล้วหละ

เล่น kaiboer K830i มาปีกว่า..........เรื่องฟีทเจอร์หลายๆ  อย่างดูจะด้อยกว่า Cengrandด้วยซ้ำไป

แต่ถ้าเอามาเล่นFull rib เป็นหลักแบบข้าน้อย..5i-ADถือว่าเล่นได้เพลินมากๆ
ยิ่งได้เล่นกับ BDR Ecternal Drive(Modded) ยิ่งถูกใจมากๆจร้า.....และยังมีข่าวขากพี่ๆอีกหลายท่านในก๊วนหลายท่านปล่อยของที่ใช้อยู่( ยี่ห้อ O.....O )ไปแบบไม่เสียดายเลย  เมื่อได้เล่น5i-AD
ขอความมั่นใจหน่อยท่านจะไปถอยแล้ว แทง แทง แทง
บันทึกการเข้า
  • wat12
  • Full LED TV member
  • ****
  • ออฟไลน์ ออฟไลน์
  • กระทู้: 1,068
  • งบลับมีน้อย อยากสอยของดี หาทั่วปัฐพี มิมีพบเจอ จึงเผลอโมฯแหลก
  • ดูรายละเอียด อีเมล์
Re: รวมผลคนใช้ CEN.GRAND 5i-360 HDplayer hiend
« ตอบ #426 เมื่อ: ตุลาคม 05, 2013, 02:58:18 pm »

ปัญหาเมื่อไหร่จะจบรอไม่ไหวเเล้ว  โขกกำแพง โขกกำแพง โขกกำแพงจะไป A 400 เเล้ว เสาร์นี้เพื่อนจะมารับ A210 ไปดูเเลต่อแล้ว เศร้า เศร้า เศร้า
A400 เทียบกับ 5i 360 ภาพอันไหนดีกว่าครับ

เท่าที่ลองเล่นมาระยะหนึ่ง
เน้นทั้งภาพ  และเสียง (เข้าขั้นบร้า เช่นกัน อิอิ คิคิ )
ส่วนตัวคิดว่าเรื่องการเล่นmkvคลี่คลายขึ้น  เรื่อยๆ แล้วหละ

เล่น kaiboer K830i มาปีกว่า..........เรื่องฟีทเจอร์หลายๆ  อย่างดูจะด้อยกว่า Cengrandด้วยซ้ำไป

แต่ถ้าเอามาเล่นFull rib เป็นหลักแบบข้าน้อย..5i-ADถือว่าเล่นได้เพลินมากๆ
ยิ่งได้เล่นกับ BDR Ecternal Drive(Modded) ยิ่งถูกใจมากๆจร้า.....และยังมีข่าวขากพี่ๆอีกหลายท่านในก๊วนหลายท่านปล่อยของที่ใช้อยู่( ยี่ห้อ O.....O )ไปแบบไม่เสียดายเลย  เมื่อได้เล่น5i-AD
ขอความมั่นใจหน่อยท่านจะไปถอยแล้ว แทง แทง แทง

ของอย่างนี้คงต้องเป็นการศึกษา ทดลอง  ทั้งด้วยตนเองและผองเพื่อน

พอดีว่า ข้าน้อยยอมเลือกใช้แบบ
Put the right man to the right job. on the right time ตามยุค(ตอนนี้1080p ก็พอใจเหลือๆแล้ว)
จึงแทบไม่มีปัญหาอะไร........นอกจากเรื่องหาตังค์มาไม่พอเล่น คิคิ
ทั้งๆที่เล่น  ไคเบอร์มาก่อน (K830i)  FW ก็โบฯ  สิ้นดี.........ลูกเล่นฟีทเจอร์ / Hardware ยังถือว่าด้อยกว่า  น้องแอ๊ด (5i-AD)ด้วยซ้ำ
แต่ก็ใช้เป็นเบอร์หนึ่งสำหรับฟูลริบ  และmkvที่เล่นได้  มาปีกว่า

เล่นสองแชแน่ลมาตลอด  พึ่งสมัคร์เป็นหมือใหม่ ชุดดูหนังเมื่อไม่กี่ปีนี่เองจร้า (ยังทำได้ถึงแค่ภาพ  เรื่องเสียง  ยังทำไม่เสร็จจร้า)
ชุดมือใหม่หัดขับ  ของข้าน้อยจร้า
http://www.htg2.net/index.php?topic=64063.120
« แก้ไขครั้งสุดท้าย: ตุลาคม 05, 2013, 03:01:09 pm โดย wat12 »
บันทึกการเข้า
  • maxxx77
  • LCD TV member
  • **
  • ออฟไลน์ ออฟไลน์
  • กระทู้: 112
  • ดูรายละเอียด
Re: รวมผลคนใช้ CEN.GRAND 5i-360 HDplayer hiend
« ตอบ #427 เมื่อ: ตุลาคม 07, 2013, 05:46:19 pm »

เหมือนมี firmware ออกใหม่เมื่อวันที่ 4 เดือน 10

แต่ก็แปลกที่มันยังเป็นเวอร์ชั่น 1.9.8.p
บันทึกการเข้า
  • Tesla
  • Flat TV member
  • *
  • ออฟไลน์ ออฟไลน์
  • กระทู้: 12
  • ดูรายละเอียด อีเมล์
Re: รวมผลคนใช้ CEN.GRAND 5i-360 HDplayer hiend
« ตอบ #428 เมื่อ: ตุลาคม 07, 2013, 07:06:23 pm »

อาจมีการเปลี่ยนแปลงให้ดีขึ้น ใครโหลดมาแล้วรายงานหน่อยครับ
บันทึกการเข้า
  • kritkris
  • Full LED TV member
  • ****
  • ออฟไลน์ ออฟไลน์
  • กระทู้: 1,239
  • ดูรายละเอียด อีเมล์
Re: รวมผลคนใช้ CEN.GRAND 5i-360 HDplayer hiend
« ตอบ #429 เมื่อ: ตุลาคม 07, 2013, 07:28:00 pm »

เหมือนมี firmware ออกใหม่เมื่อวันที่ 4 เดือน 10

แต่ก็แปลกที่มันยังเป็นเวอร์ชั่น 1.9.8.p
ขอลิ้งลองโหลดหน่อยสิครับ  ปลื้ม ปลื้ม
บันทึกการเข้า
  • Tesla
  • Flat TV member
  • *
  • ออฟไลน์ ออฟไลน์
  • กระทู้: 12
  • ดูรายละเอียด อีเมล์
Re: รวมผลคนใช้ CEN.GRAND 5i-360 HDplayer hiend
« ตอบ #430 เมื่อ: ตุลาคม 07, 2013, 09:20:23 pm »

ขอLinkและคำแปลด้วยครับ เท่ห์ เศร้า
บันทึกการเข้า
  • wat12
  • Full LED TV member
  • ****
  • ออฟไลน์ ออฟไลน์
  • กระทู้: 1,068
  • งบลับมีน้อย อยากสอยของดี หาทั่วปัฐพี มิมีพบเจอ จึงเผลอโมฯแหลก
  • ดูรายละเอียด อีเมล์
Re: รวมผลคนใช้ CEN.GRAND 5i-360 HDplayer hiend
« ตอบ #431 เมื่อ: ตุลาคม 08, 2013, 04:32:17 am »

อยากทราบข้อมูลจากทางร้านนิสนึงครับว่า

 FW  D/L จากเว็ป(จีน ช่องแรก) ของCengrand โดยตรง  ก็ควรปรุงไฟล์ ก่อนใช้  แบบที่คุณปอยแนะนำไว้ใช่ไหมครับ ปลื้ม
บันทึกการเข้า
หน้า: 1 ... 22 23 [24] 25 26 ... 98
กระโดดไป: